<?xml version="1.0" standalone="no"?>
<!DOCTYPE svg PUBLIC "-//W3C//DTD SVG 1.1//EN" "http://www.w3.org/Graphics/SVG/1.1/DTD/svg11.dtd" >
<svg xmlns="http://www.w3.org/2000/svg">
<metadata>Generated by IcoMoon</metadata>
<defs>
<font id="CS-Interface" horiz-adv-x="1024">
<font-face units-per-em="1024" ascent="960" descent="-64" />
<missing-glyph horiz-adv-x="1024" />
<glyph unicode="&#x20;" horiz-adv-x="512" d="" />
<glyph unicode="&#xe900;" glyph-name="question-hexagon" d="M441.6 839.962c43.564 25.151 97.239 25.151 140.8 0l252.324-145.679c43.566-25.151 70.4-71.633 70.4-121.936v-291.359c0-50.304-26.834-96.783-70.4-121.938l-252.324-145.679c-43.561-25.149-97.236-25.149-140.8 0l-252.324 145.679c-43.564 25.155-70.4 71.634-70.4 121.938v291.359c0 50.303 26.836 96.785 70.4 121.936l252.324 145.679zM544 773.451c-19.799 11.432-44.198 11.432-64 0l-252.324-145.679c-19.802-11.432-32-32.561-32-55.426v-291.359c0-22.866 12.198-43.991 32-55.424l252.324-145.679c19.802-11.433 44.201-11.433 64 0l252.324 145.679c19.804 11.433 32 32.558 32 55.424v291.359c0 22.865-12.196 43.993-32 55.426l-252.324 145.679zM512 593.067c-35.346 0-64-28.654-64-64 0-21.208-17.192-38.4-38.4-38.4s-38.4 17.192-38.4 38.4c0 77.762 63.038 140.8 140.8 140.8 77.763 0 140.8-63.038 140.8-140.8s-63.037-140.8-140.8-140.8c-21.208 0-38.4 17.193-38.4 38.4s17.192 38.4 38.4 38.4c35.348 0 64 28.654 64 64s-28.652 64-64 64zM512 311.467c21.207 0 38.4-17.193 38.4-38.4v-25.6c0-21.207-17.193-38.4-38.4-38.4s-38.4 17.193-38.4 38.4v25.6c0 21.207 17.192 38.4 38.4 38.4z" />
<glyph unicode="&#xe901;" glyph-name="save" d="M307.125 874.667c0.025 0 0.050 0 0.075 0s0.050 0 0.075 0l311.282 0.002c23.849 0.015 42.66 0.027 60.805-4.875 7.972-2.154 15.744-5.007 23.219-8.524 17.009-8.002 31.34-20.179 49.516-35.621l135.045-114.58c22.753-19.274 40.689-34.471 52.68-54.381 5.253-8.725 9.544-17.995 12.8-27.646 7.424-22.021 7.404-45.533 7.383-75.352l-0.005-359.385c0-34.284 0-62.889-2.355-86.052-2.463-24.243-7.828-46.735-21.376-67.011-10.271-15.375-23.47-28.575-38.845-38.845-20.275-13.548-42.767-18.908-67.011-21.376-23.163-2.355-51.768-2.355-86.052-2.355h-464.723c-34.283 0-62.89 0-86.050 2.355-24.242 2.468-46.737 7.828-67.013 21.376-15.374 10.271-28.574 23.47-38.846 38.845-13.548 20.275-18.909 42.767-21.374 67.011-2.356 23.158-2.356 51.768-2.355 86.052v464.726c-0.001 34.282-0.002 62.888 2.355 86.047 2.466 24.242 7.827 46.737 21.374 67.013 10.273 15.374 23.473 28.574 38.846 38.846 20.275 13.548 42.771 18.909 67.013 21.375 23.159 2.356 51.766 2.355 86.049 2.354h27.488zM659.333 795.652c-7.060 1.908-15.002 2.215-44.887 2.215h-268.846v-179.2c0-18.776 0.047-29.968 0.882-38.176 0.496-4.879 1.134-6.892 1.362-7.463 0.892-1.3 2.016-2.424 3.316-3.316 0.571-0.229 2.584-0.867 7.463-1.363 8.208-0.835 19.4-0.882 38.176-0.882h320c21.207 0 38.4-17.192 38.4-38.4s-17.193-38.4-38.4-38.4h-321.691c-16.522-0.002-31.689-0.003-44.258 1.276-13.639 1.388-28.412 4.592-42.23 13.825-9.783 6.537-18.183 14.937-24.72 24.721-9.233 13.818-12.437 28.591-13.825 42.23-1.279 12.57-1.277 27.736-1.276 44.257v180.887c-29.829-0.033-50.9-0.272-67.439-1.955-18.169-1.848-26.565-5.116-32.117-8.826-6.988-4.669-12.988-10.67-17.658-17.658-3.71-5.553-6.978-13.948-8.826-32.117-1.913-18.811-1.96-43.486-1.96-80.239v-460.8c0-36.751 0.047-61.43 1.96-80.241 1.848-18.166 5.116-26.563 8.826-32.118 4.669-6.984 10.67-12.984 17.658-17.654 5.553-3.712 13.948-6.979 32.117-8.827 16.539-1.684 37.611-1.92 67.439-1.956v180.884c-0.002 16.522-0.003 31.688 1.276 44.257 1.388 13.64 4.592 28.416 13.825 42.23 6.537 9.784 14.937 18.186 24.721 24.724 13.818 9.231 28.591 12.436 42.23 13.824 12.57 1.28 27.736 1.275 44.257 1.275h233.782c16.522 0 31.693 0.005 44.257-1.275 13.64-1.388 28.416-4.593 42.235-13.824 9.779-6.538 18.181-14.94 24.719-24.724 9.231-13.814 12.436-28.59 13.824-42.23 1.28-12.57 1.275-27.735 1.275-44.252v-180.89c29.829 0.036 50.898 0.271 67.441 1.956 18.166 1.848 26.563 5.115 32.118 8.827 6.989 4.669 12.984 10.67 17.654 17.654 3.712 5.555 6.979 13.952 8.827 32.118 1.915 18.811 1.961 43.489 1.961 80.241v352.235c0 37.497-0.471 47.452-3.354 56.004-1.48 4.387-3.43 8.6-5.816 12.566-4.659 7.732-11.945 14.531-40.535 38.791l-127.954 108.565c-22.784 19.334-29.036 24.236-35.656 27.35-3.395 1.598-6.927 2.895-10.552 3.874zM678.4 55.467v179.2c0 18.775-0.046 29.967-0.881 38.175-0.497 4.879-1.137 6.892-1.362 7.465-0.891 1.3-2.017 2.422-3.318 3.318-0.573 0.225-2.586 0.865-7.465 1.362-8.207 0.835-19.4 0.881-38.175 0.881h-230.4c-18.776 0-29.968-0.046-38.176-0.881-4.879-0.497-6.892-1.137-7.463-1.362-1.3-0.896-2.424-2.017-3.316-3.318-0.229-0.573-0.867-2.586-1.363-7.465-0.835-8.207-0.882-19.4-0.882-38.175v-179.2h332.8z" />
<glyph unicode="&#xe902;" glyph-name="scissors" d="M371.2 183.467c0 63.621-51.577 115.2-115.2 115.2s-115.2-51.579-115.2-115.2c0-63.621 51.577-115.2 115.2-115.2s115.2 51.579 115.2 115.2zM256 375.467c106.039 0 192-85.96 192-192s-85.961-192-192-192c-106.039 0-192 85.96-192 192s85.961 192 192 192zM371.2 682.667c0-63.623-51.577-115.2-115.2-115.2s-115.2 51.577-115.2 115.2c0 63.623 51.577 115.2 115.2 115.2s115.2-51.577 115.2-115.2zM256 490.667c106.039 0 192 85.961 192 192s-85.961 192-192 192c-106.039 0-192-85.961-192-192s85.961-192 192-192zM950.753 771.658c13.804-16.102 11.94-40.344-4.163-54.146l-331.853-284.445 331.853-284.447c16.102-13.798 17.966-38.042 4.163-54.144-13.798-16.102-38.042-17.966-54.144-4.163l-340.874 292.178-129.193-110.735c-11.955 23.045-28.444 43.361-48.286 59.766l118.472 101.545-118.472 101.548c19.842 16.403 36.33 36.718 48.286 59.764l129.193-110.735 340.874 292.179c16.102 13.802 40.346 11.937 54.144-4.165z" />
<glyph unicode="&#xe903;" glyph-name="info-hexagon" d="M441.6 839.962c43.564 25.151 97.239 25.151 140.8 0l252.324-145.679c43.566-25.151 70.4-71.633 70.4-121.936v-291.359c0-50.304-26.834-96.783-70.4-121.938l-252.324-145.679c-43.561-25.149-97.236-25.149-140.8 0l-252.324 145.679c-43.564 25.155-70.4 71.634-70.4 121.938v291.359c0 50.303 26.836 96.785 70.4 121.936l252.324 145.679zM544 773.451c-19.799 11.432-44.198 11.432-64 0l-252.324-145.679c-19.802-11.432-32-32.561-32-55.426v-291.359c0-22.866 12.198-43.991 32-55.424l252.324-145.679c19.802-11.433 44.201-11.433 64 0l252.324 145.679c19.804 11.433 32 32.558 32 55.424v291.359c0 22.865-12.196 43.993-32 55.426l-252.324 145.679zM512 183.467c-21.208 0-38.4 17.193-38.4 38.4v230.4c0 21.208 17.192 38.4 38.4 38.4s38.4-17.192 38.4-38.4v-230.4c0-21.207-17.193-38.4-38.4-38.4zM512 541.867c-21.208 0-38.4 17.192-38.4 38.4v51.2c0 21.208 17.192 38.4 38.4 38.4s38.4-17.192 38.4-38.4v-51.2c0-21.208-17.193-38.4-38.4-38.4z" />
<glyph unicode="&#xe904;" glyph-name="menu" d="M64 785.067c0 21.208 17.192 38.4 38.4 38.4h819.2c21.207 0 38.4-17.192 38.4-38.4s-17.193-38.4-38.4-38.4h-819.2c-21.208 0-38.4 17.192-38.4 38.4zM51.2 439.467c0 21.208 17.192 38.4 38.4 38.4h819.2c21.207 0 38.4-17.192 38.4-38.4s-17.193-38.4-38.4-38.4h-819.2c-21.208 0-38.4 17.193-38.4 38.4zM64 68.267c0 21.207 17.192 38.4 38.4 38.4h819.2c21.207 0 38.4-17.193 38.4-38.4s-17.193-38.4-38.4-38.4h-819.2c-21.208 0-38.4 17.193-38.4 38.4z" />
<glyph unicode="&#xe905;" glyph-name="more-horizontal" d="M422.4 426.667c0 49.485 40.115 89.6 89.6 89.6s89.6-40.115 89.6-89.6c0-49.485-40.115-89.6-89.6-89.6s-89.6 40.115-89.6 89.6zM512 439.467c-7.069 0-12.8-5.731-12.8-12.8 0-7.071 5.731-12.8 12.8-12.8 7.071 0 12.8 5.729 12.8 12.8 0 7.069-5.729 12.8-12.8 12.8zM64 426.667c0 49.485 40.115 89.6 89.6 89.6s89.6-40.115 89.6-89.6c0-49.485-40.115-89.6-89.6-89.6s-89.6 40.115-89.6 89.6zM153.6 439.467c-7.069 0-12.8-5.731-12.8-12.8 0-7.071 5.731-12.8 12.8-12.8s12.8 5.729 12.8 12.8c0 7.069-5.731 12.8-12.8 12.8zM780.8 426.667c0 49.485 40.115 89.6 89.6 89.6s89.6-40.115 89.6-89.6c0-49.485-40.115-89.6-89.6-89.6s-89.6 40.115-89.6 89.6zM870.4 439.467c-7.071 0-12.8-5.731-12.8-12.8 0-7.071 5.729-12.8 12.8-12.8s12.8 5.729 12.8 12.8c0 7.069-5.729 12.8-12.8 12.8z" />
<glyph unicode="&#xe906;" glyph-name="search" d="M460.8 874.667c-219.147 0-396.8-177.653-396.8-396.8s177.653-396.8 396.8-396.8c95.744 0 183.567 33.91 252.119 90.378l155.93-155.93c14.996-14.996 39.306-14.996 54.303 0s14.996 39.306 0 54.303l-155.93 155.93c56.468 68.552 90.378 156.375 90.378 252.119 0 219.147-177.654 396.8-396.8 396.8zM140.8 477.867c0 176.731 143.269 320 320 320 176.732 0 320-143.269 320-320 0-176.732-143.268-320-320-320s-320 143.268-320 320z" />
<glyph unicode="&#xe907;" glyph-name="send" d="M590.633 8.020c12.155-3.348 25.027-3.036 37.002 0.901 21.151 6.953 31.805 24.899 37.315 35.425 5.929 11.336 11.848 26.465 18.243 42.813l251.059 641.585c6.154 15.724 11.899 30.398 15.14 42.438 3.057 11.37 7.188 31.217-3.169 50.37-5.919 10.945-14.904 19.927-25.846 25.847-19.154 10.359-39.004 6.228-50.371 3.169-12.042-3.24-26.711-8.983-42.435-15.138l-641.591-251.057c-16.347-6.394-31.479-12.314-42.812-18.246-10.525-5.509-28.47-16.163-35.425-37.312-3.938-11.977-4.252-24.85-0.901-37.004 5.918-21.463 23.323-32.977 33.568-38.991 11.032-6.476 25.856-13.124 41.873-20.306l240.966-108.085 108.088-240.968c7.178-16.015 13.829-30.843 20.306-41.876 6.011-10.245 17.526-27.648 38.989-33.567zM612.398 116.989c-2.074-5.289-3.907-9.969-5.56-14.121-1.853 4.065-3.912 8.648-6.241 13.834l-102.422 228.347 138.231 138.231c14.996 14.996 14.996 39.31 0 54.306s-39.306 14.996-54.303 0l-138.234-138.234-228.344 102.426c-5.186 2.326-9.772 4.388-13.837 6.24 4.151 1.652 8.831 3.488 14.124 5.56l637.912 249.617c5.084 1.989 9.574 3.742 13.568 5.279-1.536-3.996-3.287-8.487-5.279-13.571l-249.615-637.913z" />
<glyph unicode="&#xe908;" glyph-name="settings-2" d="M581.299 132.267h-478.899c-21.208 0-38.4 17.193-38.4 38.4s17.192 38.4 38.4 38.4h478.899c16.717 59.1 71.050 102.4 135.501 102.4s118.784-43.3 135.501-102.4h69.299c21.207 0 38.4-17.193 38.4-38.4s-17.193-38.4-38.4-38.4h-69.299c-16.717-59.1-71.050-102.4-135.501-102.4s-118.784 43.3-135.501 102.4zM652.8 170.667c0-35.348 28.652-64 64-64s64 28.652 64 64c0 35.348-28.652 64-64 64s-64-28.652-64-64zM171.7 644.267h-69.3c-21.208 0-38.4 17.192-38.4 38.4s17.192 38.4 38.4 38.4h69.3c16.715 59.098 71.050 102.4 135.5 102.4s118.785-43.302 135.5-102.4h478.9c21.207 0 38.4-17.192 38.4-38.4s-17.193-38.4-38.4-38.4h-478.9c-16.715-59.098-71.050-102.4-135.5-102.4s-118.785 43.302-135.5 102.4zM243.2 682.667c0-35.346 28.654-64 64-64s64 28.654 64 64c0 35.346-28.654 64-64 64s-64-28.654-64-64z" />
<glyph unicode="&#xe909;" glyph-name="sort" d="M307.2-21.333c-21.208 0-38.4 17.193-38.4 38.4v768c0 21.208 17.192 38.4 38.4 38.4s38.4-17.192 38.4-38.4v-768c0-21.207-17.192-38.4-38.4-38.4zM716.8 874.666c-21.207 0-38.4-17.192-38.4-38.4v-767.999c0-21.207 17.193-38.4 38.4-38.4s38.4 17.193 38.4 38.4v767.999c0 21.208-17.193 38.4-38.4 38.4zM126.447 655.513c-14.996 14.996-14.996 39.31 0 54.306l153.6 153.601c14.996 14.996 39.31 14.996 54.306 0l153.6-153.6c14.996-14.996 14.996-39.31 0-54.306s-39.31-14.996-54.306 0l-126.447 126.447-126.447-126.448c-14.996-14.996-39.31-14.996-54.306 0zM536.049 197.818c-14.996-14.996-14.996-39.306 0-54.303l153.6-153.6c14.996-14.996 39.306-14.996 54.303 0l153.6 153.6c14.996 14.996 14.996 39.306 0 54.303s-39.306 14.996-54.303 0l-126.449-126.444-126.449 126.444c-14.996 14.996-39.306 14.996-54.303 0z" />
<glyph unicode="&#xe90a;" glyph-name="star" d="M430.834 804.532c32.199 68.867 130.134 68.867 162.334 0l77.46-165.672c1.807-3.87 5.432-6.583 9.651-7.23l177.603-27.241c71.987-11.041 101.427-98.788 50.673-151.012l-131.942-135.755c-2.821-2.903-4.106-6.973-3.456-10.972l30.664-188.723c12.006-73.866-66.478-129.024-131.917-92.713l-153.692 85.289c-3.86 2.145-8.559 2.145-12.422 0l-153.694-85.289c-65.437-36.311-143.92 18.847-131.917 92.713l30.664 188.723c0.65 3.999-0.632 8.069-3.455 10.972l-131.94 135.755c-50.756 52.224-21.314 139.971 50.669 151.012l177.602 27.241c4.223 0.648 7.845 3.36 9.655 7.231l77.461 165.672zM523.597 772.004c-4.603 9.839-18.592 9.838-23.192 0l-77.461-165.672c-12.668-27.094-38.019-46.081-67.582-50.615l-177.602-27.241c-10.284-1.577-14.49-14.112-7.239-21.573l131.94-135.752c19.764-20.337 28.735-48.829 24.187-76.82l-30.665-188.718c-1.715-10.552 9.497-18.432 18.845-13.245l153.694 85.289c27.042 15.007 59.912 15.007 86.951 0l153.697-85.289c9.349-5.187 20.562 2.693 18.847 13.245l-30.669 188.718c-4.547 27.991 4.424 56.484 24.187 76.82l131.942 135.752c7.25 7.461 3.046 19.996-7.24 21.573l-177.603 27.241c-29.563 4.534-54.912 23.521-67.579 50.615l-77.46 165.672z" />
<glyph unicode="&#xe90b;" glyph-name="star-full" d="M430.834 804.532c32.199 68.867 130.134 68.867 162.334 0l77.46-165.672c1.807-3.87 5.432-6.583 9.651-7.23l177.603-27.241c71.987-11.041 101.427-98.788 50.673-151.012l-131.942-135.755c-2.821-2.903-4.106-6.973-3.456-10.972l30.664-188.723c12.006-73.866-66.478-129.024-131.917-92.713l-153.692 85.289c-3.86 2.145-8.559 2.145-12.422 0l-153.694-85.289c-65.437-36.311-143.92 18.847-131.917 92.713l30.664 188.723c0.65 3.999-0.632 8.069-3.455 10.972l-131.94 135.755c-50.756 52.224-21.314 139.971 50.669 151.012l177.602 27.241c4.223 0.648 7.845 3.36 9.655 7.231l77.461 165.672z" />
<glyph unicode="&#xe90c;" glyph-name="user" d="M626.053 709.215c1.475-18.25 1.521-35.793 0.174-53.643-2.842-37.717-4.168-46.066-11.889-58.289-4.582-7.252-16.507-18.313-24.084-22.337-12.221-6.491-25.267-7.479-77.338-7.479-54.42 0-68.179 1.041-80.521 7.728-7.904 4.282-19.52 15.331-24.192 23.011-7.565 12.436-8.828 21.796-10.893 63.041-0.713 14.255-0.682 28.385 0.111 42.884 2.252 41.158 3.55 50.569 10.914 62.782 4.801 7.963 16.592 19.126 24.805 23.485 12.169 6.458 25.8 7.468 79.519 7.468 51.661 0 64.686-0.961 76.718-7.219 7.921-4.119 19.948-15.212 24.689-22.773 7.506-11.965 8.904-20.514 11.986-58.66zM702.812 649.801c1.649 21.875 1.582 43.417-0.21 65.603-0.113 1.372-0.22 2.733-0.328 4.083-2.642 32.991-4.797 59.944-23.148 89.198-12.006 19.146-34.263 39.673-54.313 50.101-30.71 15.971-63.887 15.934-105.298 15.887-2.258-0.003-4.541-0.005-6.856-0.005-2.427 0-4.829 0.003-7.204 0.006-42.89 0.050-77.181 0.090-108.318-16.436-20.506-10.883-42.586-31.788-54.573-51.668-18.162-30.123-19.698-58.656-21.578-93.606-0.082-1.533-0.166-3.078-0.251-4.636-0.939-17.16-0.977-33.972-0.129-50.919 0.077-1.539 0.152-3.065 0.226-4.579 1.73-35.185 3.144-63.939 21.757-94.536 11.735-19.291 33.369-39.868 53.222-50.624 31.56-17.098 66.354-17.057 109.827-17.007 2.4 0.003 4.826 0.006 7.278 0.006 2.314 0 4.603-0.003 6.871-0.005 41.8-0.048 75.346-0.086 106.491 16.458 19.379 10.293 41.267 30.593 52.987 49.141 18.785 29.737 20.797 56.678 23.255 89.626 0.097 1.295 0.195 2.599 0.292 3.913zM887.68 88.675c-0.133-1.423-0.266-2.852-0.399-4.291l-4.25-45.302c-1.976-21.115-20.7-36.628-41.815-34.647-21.115 1.976-36.628 20.7-34.647 41.815l4.244 45.302c7.45 79.437 9.277 107.453-13.885 150.492-2.811 5.217-9.825 15.217-18.97 26.307-9.144 11.095-17.623 19.886-22.211 23.634-21.284 17.413-35.937 25.037-49.925 29.46-15.252 4.823-31.718 6.605-60.349 9.431-38.415 3.789-82.76 6.19-133.473 6.19-50.712 0-95.058-2.401-133.474-6.19-28.632-2.826-45.097-4.608-60.348-9.431-13.987-4.424-28.642-12.047-49.928-29.46-4.584-3.748-13.063-12.539-22.208-23.634-9.145-11.090-16.161-21.089-18.968-26.307-23.164-43.039-21.336-71.055-13.889-150.492l4.247-45.302c1.979-21.115-13.533-39.839-34.648-41.815-21.115-1.981-39.837 13.532-41.817 34.647l-4.247 45.302c-0.135 1.439-0.269 2.867-0.403 4.291-7.060 75.151-11.741 124.979 23.129 189.768 6.398 11.889 17.204 26.476 27.338 38.764 10.134 12.293 22.392 25.682 32.842 34.227 26.645 21.796 49.77 35.133 75.395 43.238 23.667 7.485 47.916 9.871 73.693 12.411 0.756 0.072 1.512 0.148 2.271 0.225 41.012 4.045 87.877 6.559 141.014 6.559 53.135 0 100.004-2.514 141.015-6.559 0.758-0.077 1.516-0.154 2.268-0.225 25.779-2.54 50.028-4.925 73.697-12.411 25.62-8.105 48.748-21.443 75.392-43.238 10.45-8.545 22.707-21.934 32.845-34.227 10.132-12.288 20.936-26.875 27.336-38.764 34.872-64.788 30.188-114.616 23.127-189.768z" />
<glyph unicode="&#xe90d;" glyph-name="warning-hexagon" d="M441.6 839.962c43.564 25.151 97.234 25.151 140.8 0l252.324-145.679c43.566-25.151 70.4-71.633 70.4-121.936v-291.359c0-50.304-26.834-96.783-70.4-121.938l-252.324-145.679c-43.566-25.149-97.236-25.149-140.8 0l-252.324 145.679c-43.564 25.155-70.4 71.634-70.4 121.938v291.359c0 50.303 26.836 96.785 70.4 121.936l252.324 145.679zM544 773.451c-19.804 11.432-44.198 11.432-64 0l-252.324-145.679c-19.802-11.432-32-32.561-32-55.426v-291.359c0-22.866 12.198-43.991 32-55.424l252.324-145.679c19.802-11.433 44.196-11.433 64 0l252.324 145.679c19.804 11.433 32 32.558 32 55.424v291.359c0 22.865-12.196 43.993-32 55.426l-252.324 145.679zM512 669.867c21.207 0 38.4-17.192 38.4-38.4v-230.4c0-21.207-17.193-38.4-38.4-38.4s-38.4 17.193-38.4 38.4v230.4c0 21.208 17.192 38.4 38.4 38.4zM512 311.467c21.207 0 38.4-17.193 38.4-38.4v-51.2c0-21.207-17.193-38.4-38.4-38.4s-38.4 17.193-38.4 38.4v51.2c0 21.207 17.192 38.4 38.4 38.4z" />
<glyph unicode="&#xe90e;" glyph-name="archive" d="M190.309 874.667c-16.522 0.002-31.689 0.003-44.258-1.276-13.639-1.388-28.412-4.592-42.23-13.825-9.784-6.537-18.184-14.937-24.721-24.721-9.233-13.818-12.437-28.591-13.825-42.23-1.278-12.57-1.277-27.737-1.276-44.258v-80.182c-0.002-16.522-0.003-31.688 1.276-44.258 1.388-13.639 4.592-28.412 13.825-42.23 6.537-9.783 14.937-18.184 24.721-24.721 9.345-6.244 19.126-9.731 28.698-11.763-8.932-17.345-12.932-36.142-14.965-56.125-2.356-23.159-2.355-51.766-2.354-86.046v-208.732c-0.001-34.278-0.002-62.889 2.354-86.047 2.466-24.243 7.827-46.735 21.375-67.011 10.272-15.375 23.473-28.575 38.846-38.845 20.275-13.548 42.771-18.913 67.013-21.376 23.159-2.355 51.766-2.355 86.048-2.355h362.33c34.278 0 62.889 0 86.047 2.355 24.243 2.463 46.735 7.828 67.011 21.376 15.375 10.271 28.575 23.47 38.845 38.845 13.548 20.275 18.908 42.767 21.376 67.011 2.355 23.158 2.355 51.768 2.355 86.052v208.722c0 34.285 0 62.892-2.355 86.051-2.033 19.983-6.031 38.78-14.966 56.125 9.574 2.032 19.354 5.519 28.703 11.763 9.779 6.537 18.181 14.938 24.719 24.721 9.231 13.818 12.436 28.591 13.824 42.23 1.28 12.57 1.275 27.737 1.275 44.259v80.18c0 16.522 0.005 31.69-1.275 44.259-1.388 13.639-4.593 28.412-13.824 42.23-6.538 9.784-14.94 18.184-24.719 24.721-13.819 9.233-28.595 12.437-42.235 13.825-12.57 1.278-27.735 1.277-44.257 1.276h-643.38zM328.858 541.866h366.126c34.678-0.005 58.296-0.113 76.457-1.959 18.166-1.848 26.563-5.116 32.118-8.826 6.984-4.669 12.984-10.67 17.654-17.658 3.712-5.553 6.979-13.948 8.827-32.117 1.915-18.811 1.961-43.486 1.961-80.239v-204.8c0-36.751-0.046-61.43-1.961-80.241-1.848-18.166-5.115-26.563-8.827-32.118-4.669-6.989-10.67-12.984-17.654-17.654-5.555-3.712-13.952-6.979-32.118-8.827-18.811-1.915-43.489-1.961-80.241-1.961h-358.4c-36.753 0-61.428 0.046-80.239 1.961-18.169 1.848-26.565 5.115-32.117 8.827-6.988 4.669-12.988 10.665-17.658 17.654-3.71 5.555-6.978 13.952-8.826 32.118-1.913 18.811-1.96 43.489-1.96 80.241v204.8c0 36.753 0.047 61.428 1.96 80.239 1.848 18.169 5.116 26.565 8.826 32.117 4.669 6.988 10.67 12.988 17.658 17.658 5.553 3.71 13.948 6.978 32.117 8.826 18.13 1.844 41.708 1.954 76.297 1.959zM698.286 618.667c-1.695 0-3.4 0-5.125 0h-362.324c-1.775 0-3.534 0-5.278 0h-133.559c-18.776 0-29.968 0.046-38.176 0.881-4.879 0.497-6.892 1.135-7.463 1.363-1.3 0.891-2.424 2.016-3.316 3.316-0.229 0.571-0.867 2.584-1.363 7.463-0.835 8.208-0.882 19.4-0.882 38.177v76.8c0 18.776 0.047 29.968 0.882 38.176 0.496 4.879 1.134 6.892 1.363 7.463 0.891 1.3 1.983 2.411 3.283 3.302 0.572 0.229 2.617 0.88 7.496 1.376 8.208 0.835 19.4 0.882 38.176 0.882h640c18.775 0 29.967-0.047 38.175-0.882 4.879-0.496 6.892-1.134 7.465-1.363 1.3-0.891 2.427-2.016 3.318-3.315 0.225-0.572 0.865-2.585 1.362-7.464 0.835-8.208 0.881-19.4 0.881-38.176v-76.8c0-18.777-0.046-29.968-0.881-38.177-0.497-4.879-1.137-6.892-1.362-7.463-0.891-1.3-2.017-2.424-3.318-3.316-0.573-0.228-2.586-0.866-7.465-1.363-8.207-0.835-19.4-0.881-38.175-0.881h-133.714zM422.4 426.667c0 21.208 17.192 38.4 38.4 38.4h102.4c21.207 0 38.4-17.192 38.4-38.4s-17.193-38.4-38.4-38.4h-102.4c-21.208 0-38.4 17.193-38.4 38.4z" />
<glyph unicode="&#xe90f;" glyph-name="arrow-double-left" d="M641.551 41.116c-14.996-14.996-39.306-14.996-54.303 0l-340.3 340.296c-24.993 24.996-24.993 65.517 0 90.51l340.3 340.298c14.996 14.996 39.306 14.996 54.303 0s14.996-39.31 0-54.306l-331.246-331.247 331.246-331.249c14.996-14.996 14.996-39.306 0-54.303zM795.151 194.716c-14.996-14.996-39.306-14.996-54.303 0l-186.701 186.696c-24.991 24.996-24.991 65.517 0 90.51l186.701 186.698c14.996 14.996 39.306 14.996 54.303 0s14.996-39.31 0-54.306l-177.644-177.647 177.644-177.649c14.996-14.996 14.996-39.306 0-54.303z" />
<glyph unicode="&#xe910;" glyph-name="arrow-double-right" d="M382.447 812.22c14.996 14.996 39.31 14.996 54.306 0l340.299-340.298c24.991-24.993 24.991-65.514 0-90.51l-340.299-340.296c-14.996-14.996-39.31-14.996-54.306 0s-14.996 39.306 0 54.303l331.245 331.249-331.245 331.247c-14.996 14.996-14.996 39.31 0 54.306zM228.847 658.62c14.996 14.996 39.31 14.996 54.306 0l186.698-186.698c24.993-24.993 24.993-65.514 0-90.51l-186.698-186.696c-14.996-14.996-39.31-14.996-54.306 0s-14.996 39.306 0 54.303l177.647 177.649-177.647 177.647c-14.996 14.996-14.996 39.31 0 54.306z" />
<glyph unicode="&#xe911;" glyph-name="bin" d="M243.2 682.667v-486.4c0-36.751 0.047-61.43 1.96-80.241 1.848-18.166 5.116-26.563 8.826-32.118 4.669-6.989 10.67-12.984 17.658-17.654 5.553-3.712 13.948-6.979 32.117-8.827 18.811-1.915 43.486-1.961 80.239-1.961h256c36.751 0 61.43 0.046 80.241 1.961 18.166 1.848 26.563 5.115 32.118 8.827 6.989 4.669 12.984 10.665 17.654 17.654 3.712 5.555 6.979 13.952 8.827 32.118 1.915 18.811 1.961 43.489 1.961 80.241v486.4h76.8v-488.366c0-34.278 0-62.889-2.355-86.047-2.463-24.243-7.828-46.735-21.376-67.011-10.271-15.375-23.47-28.575-38.845-38.845-20.275-13.548-42.767-18.913-67.011-21.376-23.158-2.355-51.768-2.355-86.047-2.355h-259.93c-34.282 0-62.888 0-86.048 2.355-24.242 2.463-46.737 7.828-67.013 21.376-15.374 10.271-28.574 23.47-38.846 38.845-13.548 20.275-18.909 42.767-21.375 67.011-2.356 23.163-2.355 51.768-2.354 86.052v488.361h76.8zM725.13 645.181c-20.705-4.601-41.216 8.453-45.814 29.155l-2.954 13.274c-6.523 29.366-10.895 48.867-15.621 63.627-4.526 14.131-8.443 20.705-12.344 25.104-4.797 5.407-10.476 9.962-16.794 13.473-5.14 2.855-12.406 5.249-27.182 6.602-15.437 1.413-35.42 1.45-65.505 1.45h-53.833c-30.083 0-50.067-0.037-65.502-1.45-14.777-1.353-22.043-3.746-27.184-6.602-6.319-3.51-11.998-8.066-16.795-13.473-3.902-4.399-7.815-10.973-12.342-25.104-4.728-14.76-9.099-34.262-15.625-63.627l-2.95-13.274c-4.601-20.703-25.113-33.756-45.816-29.155s-33.756 25.113-29.155 45.816l3.32 14.938c6.057 27.263 11.159 50.224 17.086 68.729 6.249 19.51 14.327 37.199 28.033 52.647 10.554 11.896 23.048 21.917 36.95 29.64 18.054 10.029 37.073 14.077 57.475 15.945 19.351 1.772 42.872 1.772 70.799 1.77h57.243c27.93 0.001 51.451 0.002 70.799-1.77 20.403-1.868 39.424-5.916 57.477-15.945 13.901-7.722 26.394-17.744 36.951-29.64 13.701-15.448 21.78-33.137 28.032-52.647 5.924-18.505 11.028-41.466 17.085-68.729 0.123-0.553 0.246-1.107 0.369-1.664l2.949-13.274c4.603-20.703-8.453-41.215-29.153-45.816zM64 682.667c0 21.208 17.192 38.4 38.4 38.4h819.2c21.207 0 38.4-17.192 38.4-38.4s-17.193-38.4-38.4-38.4h-819.2c-21.208 0-38.4 17.192-38.4 38.4zM614.4 516.267c21.207 0 38.4-17.192 38.4-38.4v-204.8c0-21.207-17.193-38.4-38.4-38.4s-38.4 17.193-38.4 38.4v204.8c0 21.208 17.193 38.4 38.4 38.4zM409.6 516.267c21.208 0 38.4-17.192 38.4-38.4v-204.8c0-21.207-17.192-38.4-38.4-38.4s-38.4 17.193-38.4 38.4v204.8c0 21.208 17.192 38.4 38.4 38.4z" />
<glyph unicode="&#xe912;" glyph-name="calendar" d="M627.2 772.267h-230.4v64c0 21.208-17.192 38.4-38.4 38.4s-38.4-17.192-38.4-38.4v-64h-40.363c-34.282 0.001-62.889 0.002-86.049-2.354-24.242-2.466-46.737-7.827-67.012-21.375-15.374-10.272-28.574-23.473-38.847-38.846-13.547-20.275-18.909-42.771-21.374-67.013-2.356-23.159-2.355-51.766-2.355-86.049v-362.324c-0.001-34.284-0.002-62.889 2.355-86.052 2.466-24.243 7.827-46.735 21.374-67.011 10.273-15.375 23.473-28.575 38.847-38.845 20.275-13.548 42.77-18.913 67.012-21.376 23.159-2.355 51.766-2.355 86.048-2.355h464.73c34.278 0 62.889 0 86.047 2.355 24.243 2.463 46.735 7.828 67.011 21.376 15.375 10.271 28.575 23.47 38.845 38.845 13.548 20.275 18.913 42.767 21.376 67.011 2.355 23.158 2.355 51.768 2.355 86.052v362.324c0 34.282 0 62.889-2.355 86.049-2.463 24.242-7.828 46.737-21.376 67.013-10.271 15.374-23.47 28.574-38.845 38.846-20.275 13.548-42.767 18.909-67.011 21.375-23.158 2.356-51.768 2.355-86.052 2.354h-40.361v64c0 21.208-17.193 38.4-38.4 38.4s-38.4-17.192-38.4-38.4v-64zM320 657.067c0-21.208 17.192-38.4 38.4-38.4s38.4 17.192 38.4 38.4v38.4h230.4v-38.4c0-21.208 17.193-38.4 38.4-38.4s38.4 17.192 38.4 38.4v38.4h38.4c36.751 0 61.43-0.047 80.241-1.96 18.166-1.848 26.563-5.116 32.118-8.826 6.989-4.669 12.984-10.67 17.654-17.658 3.712-5.553 6.979-13.948 8.827-32.117 1.915-18.811 1.961-43.486 1.961-80.239v-38.4h-742.4v38.4c0 36.753 0.047 61.428 1.96 80.239 1.849 18.169 5.116 26.565 8.826 32.117 4.669 6.988 10.669 12.988 17.657 17.658 5.553 3.71 13.948 6.978 32.117 8.826 18.811 1.913 43.486 1.96 80.239 1.96h38.4v-38.4zM883.2 196.267c0-36.751-0.046-61.43-1.961-80.241-1.848-18.166-5.115-26.563-8.827-32.118-4.669-6.989-10.665-12.984-17.654-17.654-5.555-3.712-13.952-6.979-32.118-8.827-18.811-1.915-43.489-1.961-80.241-1.961h-460.8c-36.753 0-61.428 0.046-80.239 1.961-18.169 1.848-26.565 5.115-32.117 8.827-6.988 4.669-12.988 10.665-17.657 17.654-3.71 5.555-6.978 13.952-8.826 32.118-1.913 18.811-1.96 43.489-1.96 80.241v243.2h742.4v-243.2zM217.6 170.667c0 21.207 17.192 38.4 38.4 38.4h51.2c21.208 0 38.4-17.193 38.4-38.4s-17.192-38.4-38.4-38.4h-51.2c-21.208 0-38.4 17.193-38.4 38.4z" />
<glyph unicode="&#xe913;" glyph-name="check" d="M844.887 711.209c15.764-14.187 17.044-38.467 2.857-54.231l-424.701-471.889c-34.341-38.154-93.657-39.716-129.956-3.415l-166.641 166.641c-14.996 14.996-14.996 39.306 0 54.303s39.31 14.996 54.306 0l166.641-166.641c5.186-5.181 13.659-4.961 18.565 0.492l424.698 471.886c14.188 15.764 38.467 17.042 54.231 2.854z" />
<glyph unicode="&#xe914;" glyph-name="check-square" d="M895.831 711.438c15.892-14.046 17.388-38.313 3.338-54.203l-325.99-368.803c-34.212-38.697-93.968-40.54-130.492-4.014l-115.097 115.098c-14.996 14.996-14.996 39.308 0 54.304s39.309 14.996 54.306 0l115.097-115.099c5.218-5.217 13.755-4.951 18.642 0.573l325.996 368.804c14.044 15.89 38.313 17.385 54.2 3.34zM881.239 116.026c1.915 18.811 1.961 43.489 1.961 80.241v179.2c0 21.207 17.193 38.4 38.4 38.4s38.4-17.193 38.4-38.4v-181.161c0-34.284 0-62.894-2.355-86.052-2.468-24.243-7.828-46.735-21.376-67.011-10.271-15.375-23.47-28.575-38.845-38.845-20.275-13.548-42.767-18.913-67.011-21.376-23.163-2.355-51.768-2.355-86.052-2.355h-464.723c-34.283 0-62.89 0-86.050 2.355-24.242 2.463-46.737 7.828-67.013 21.376-15.374 10.271-28.574 23.47-38.846 38.845-13.548 20.275-18.909 42.767-21.375 67.011-2.356 23.163-2.355 51.768-2.354 86.052v464.723c-0.001 34.283-0.002 62.89 2.354 86.050 2.466 24.242 7.827 46.737 21.375 67.013 10.272 15.374 23.473 28.574 38.846 38.846 20.275 13.548 42.771 18.909 67.013 21.375 23.159 2.356 51.766 2.355 86.048 2.354h283.564c21.207 0 38.4-17.192 38.4-38.4s-17.193-38.4-38.4-38.4h-281.6c-36.753 0-61.428-0.047-80.239-1.96-18.169-1.848-26.565-5.116-32.117-8.826-6.988-4.669-12.988-10.67-17.658-17.658-3.71-5.553-6.978-13.948-8.826-32.117-1.913-18.811-1.96-43.486-1.96-80.239v-460.8c0-36.751 0.047-61.43 1.96-80.241 1.848-18.166 5.116-26.563 8.826-32.118 4.669-6.989 10.67-12.984 17.658-17.654 5.553-3.712 13.948-6.979 32.117-8.827 18.811-1.915 43.486-1.961 80.239-1.961h460.8c36.751 0 61.43 0.046 80.241 1.961 18.166 1.848 26.563 5.115 32.118 8.827 6.984 4.669 12.984 10.665 17.654 17.654 3.712 5.555 6.979 13.952 8.827 32.118z" />
<glyph unicode="&#xe915;" glyph-name="chevron-bottom" d="M846.351 607.42c14.996-14.996 14.996-39.31 0-54.306l-289.096-289.099c-24.996-24.991-65.517-24.991-90.51 0l-289.098 289.099c-14.996 14.996-14.996 39.31 0 54.306s39.31 14.996 54.306 0l280.047-280.045 280.049 280.045c14.996 14.996 39.306 14.996 54.303 0z" />
<glyph unicode="&#xe916;" glyph-name="chevron-left" d="M692.751 92.316c-14.996-14.996-39.306-14.996-54.303 0l-289.1 289.096c-24.993 24.996-24.993 65.517 0 90.51l289.1 289.098c14.996 14.996 39.306 14.996 54.303 0s14.996-39.31 0-54.306l-280.046-280.047 280.046-280.049c14.996-14.996 14.996-39.306 0-54.303z" />
<glyph unicode="&#xe917;" glyph-name="chevron-right" d="M331.247 761.020c14.996 14.996 39.31 14.996 54.306 0l289.099-289.098c24.991-24.993 24.991-65.514 0-90.51l-289.099-289.096c-14.996-14.996-39.31-14.996-54.306 0s-14.996 39.306 0 54.303l280.045 280.049-280.045 280.047c-14.996 14.996-14.996 39.31 0 54.306z" />
<glyph unicode="&#xe918;" glyph-name="chevron-top" d="M177.647 245.916c-14.996 14.996-14.996 39.306 0 54.303l289.098 289.1c24.993 24.993 65.514 24.993 90.51 0l289.096-289.1c14.996-14.996 14.996-39.306 0-54.303s-39.306-14.996-54.303 0l-280.049 280.046-280.047-280.046c-14.996-14.996-39.31-14.996-54.306 0z" />
<glyph unicode="&#xe919;" glyph-name="clipboard" d="M379.483 874.667l269.088 0.007c15.345 0.037 31.396 0.077 45.501-4.652 26.644-8.929 47.555-29.839 56.484-56.481 3.707-11.058 4.48-23.312 4.628-35.482 7.306-0.154 14.049-0.408 20.26-0.832 16.236-1.107 31.57-3.495 46.438-9.654 34.499-14.29 61.911-41.7 76.201-76.2 6.159-14.867 8.545-30.203 9.651-46.439 1.065-15.596 1.065-34.593 1.065-57.35v-393.283c0-34.278 0-62.889-2.355-86.047-2.463-24.243-7.828-46.735-21.376-67.011-10.271-15.375-23.47-28.575-38.845-38.845-20.275-13.548-42.767-18.913-67.011-21.376-23.158-2.355-51.768-2.355-86.047-2.355h-362.336c-34.279 0-62.884 0-86.042 2.355-24.242 2.463-46.737 7.828-67.013 21.376-15.374 10.271-28.574 23.47-38.846 38.845-13.548 20.275-18.909 42.767-21.374 67.011-2.356 23.158-2.356 51.768-2.355 86.052v393.279c-0.001 22.755-0.001 41.752 1.063 57.348 1.108 16.236 3.496 31.571 9.654 46.439 14.29 34.5 41.701 61.91 76.2 76.2 14.868 6.159 30.204 8.547 46.439 9.654 6.207 0.424 12.953 0.678 20.259 0.832 0.145 12.17 0.922 24.424 4.628 35.482 8.929 26.642 29.839 47.552 56.481 56.481 14.108 4.728 30.16 4.689 45.504 4.652l4.052-0.007zM745.011 701.405c-10.639-20.363-28.81-36.042-50.939-43.458-14.106-4.728-30.157-4.689-45.501-4.652l-4.055 0.007-269.086-0.007c-15.344-0.038-31.396-0.077-45.504 4.652-22.126 7.416-40.298 23.095-50.938 43.458-10.025-0.101-18.181-0.321-25.203-0.8-12.325-0.841-18.327-2.35-22.277-3.986-15.682-6.495-28.141-18.955-34.637-34.636-1.636-3.95-3.145-9.952-3.986-22.277-0.864-12.67-0.885-29.033-0.885-53.415v-390.023c0-36.751 0.047-61.43 1.96-80.241 1.848-18.166 5.116-26.563 8.826-32.118 4.669-6.989 10.67-12.984 17.658-17.654 5.553-3.712 13.948-6.979 32.117-8.827 18.811-1.915 43.486-1.961 80.239-1.961h358.4c36.751 0 61.43 0.046 80.241 1.961 18.166 1.848 26.563 5.115 32.118 8.827 6.989 4.669 12.984 10.665 17.654 17.654 3.712 5.555 6.979 13.952 8.827 32.118 1.915 18.811 1.961 43.489 1.961 80.241v390.023c0 24.382-0.020 40.745-0.886 53.415-0.84 12.325-2.35 18.327-3.983 22.277-6.497 15.682-18.959 28.141-34.637 34.636-3.953 1.636-9.953 3.146-22.277 3.986-7.025 0.479-15.181 0.699-25.206 0.8zM346.312 789.277c-0.063-0.308-0.281-1.531-0.441-4.385-0.257-4.567-0.271-10.665-0.271-20.908s0.014-16.342 0.271-20.908c0.16-2.853 0.377-4.076 0.441-4.385 1.286-3.69 4.187-6.592 7.878-7.877 0.308-0.063 1.531-0.281 4.385-0.441 4.567-0.257 10.665-0.271 20.908-0.271h265.033c10.245 0 16.343 0.014 20.91 0.271 2.852 0.161 4.076 0.378 4.383 0.441 3.692 1.285 6.595 4.187 7.88 7.878 0.061 0.308 0.282 1.531 0.44 4.384 0.256 4.567 0.271 10.665 0.271 20.908s-0.015 16.342-0.271 20.908c-0.159 2.854-0.379 4.077-0.44 4.385-1.285 3.69-4.188 6.592-7.88 7.878-0.307 0.063-1.531 0.281-4.383 0.441-4.567 0.257-10.665 0.271-20.91 0.271h-265.033c-10.243 0-16.342-0.014-20.908-0.271-2.853-0.16-4.077-0.377-4.385-0.441-3.69-1.286-6.592-4.187-7.878-7.878z" />
<glyph unicode="&#xe91a;" glyph-name="clock" d="M512 669.867c21.207 0 38.4-17.192 38.4-38.4v-183.592c0-23.762-9.441-46.552-26.245-63.355l-87.402-87.404c-14.996-14.996-39.31-14.996-54.306 0s-14.996 39.306 0 54.303l87.404 87.406c2.4 2.4 3.749 5.656 3.749 9.051v183.592c0 21.208 17.192 38.4 38.4 38.4zM512 797.867c-205.008 0-371.2-166.192-371.2-371.2 0-205.010 166.192-371.2 371.2-371.2 205.010 0 371.2 166.19 371.2 371.2 0 205.008-166.19 371.2-371.2 371.2zM64 426.667c0 247.423 200.577 448 448 448s448-200.577 448-448c0-247.424-200.576-448-448-448s-448 200.576-448 448z" />
<glyph unicode="&#xe91b;" glyph-name="close" d="M228.847 709.82c14.996 14.996 39.31 14.996 54.306 0l511.998-512.002c14.996-14.996 14.996-39.306 0-54.303s-39.306-14.996-54.303 0l-512.002 511.998c-14.996 14.996-14.996 39.31 0 54.306zM795.151 709.82c14.996-14.996 14.996-39.31 0-54.306l-511.998-511.998c-14.996-14.996-39.31-14.996-54.306 0s-14.996 39.306 0 54.303l512.002 512.002c14.996 14.996 39.306 14.996 54.303 0z" />
<glyph unicode="&#xe91c;" glyph-name="close-circle" d="M331.247 607.42c14.996 14.996 39.31 14.996 54.306 0l307.198-307.202c14.996-14.996 14.996-39.306 0-54.303s-39.306-14.996-54.303 0l-307.202 307.198c-14.996 14.996-14.996 39.31 0 54.306zM692.751 607.42c14.996-14.996 14.996-39.31 0-54.306l-307.198-307.198c-14.996-14.996-39.31-14.996-54.306 0s-14.996 39.306 0 54.303l307.202 307.202c14.996 14.996 39.306 14.996 54.303 0zM512 797.867c-205.008 0-371.2-166.192-371.2-371.2 0-205.010 166.192-371.2 371.2-371.2 205.010 0 371.2 166.19 371.2 371.2 0 205.008-166.19 371.2-371.2 371.2zM64 426.667c0 247.423 200.577 448 448 448s448-200.577 448-448c0-247.424-200.576-448-448-448s-448 200.576-448 448z" />
<glyph unicode="&#xe91d;" glyph-name="duplicate" d="M744.361 874.667h-259.924c-34.282 0.001-62.889 0.002-86.049-2.355-24.242-2.466-46.737-7.827-67.013-21.374-15.374-10.273-28.574-23.473-38.846-38.846-13.548-20.275-18.909-42.771-21.374-67.013-2.103-20.676-2.329-45.693-2.352-75.214-29.521-0.024-54.539-0.249-75.214-2.352-24.242-2.466-46.737-7.827-67.013-21.374-15.374-10.273-28.574-23.473-38.846-38.846-13.548-20.275-18.909-42.771-21.374-67.013-2.356-23.159-2.356-51.765-2.355-86.047v-259.926c-0.001-34.284-0.002-62.894 2.355-86.052 2.466-24.243 7.827-46.735 21.374-67.011 10.273-15.375 23.473-28.575 38.846-38.845 20.275-13.548 42.771-18.913 67.013-21.376 23.159-2.355 51.766-2.355 86.048-2.355h259.93c34.278 0 62.889 0 86.047 2.355 24.243 2.463 46.735 7.828 67.011 21.376 15.375 10.271 28.575 23.47 38.845 38.845 13.548 20.275 18.913 42.767 21.376 67.011 2.104 20.675 2.33 45.696 2.355 75.213 29.517 0.026 54.538 0.251 75.213 2.355 24.243 2.463 46.735 7.828 67.011 21.376 15.375 10.271 28.575 23.47 38.845 38.845 13.548 20.275 18.913 42.767 21.376 67.011 2.355 23.158 2.355 51.768 2.355 86.047v259.93c0 34.282 0 62.888-2.355 86.048-2.463 24.242-7.828 46.737-21.376 67.013-10.271 15.374-23.47 28.574-38.845 38.846-20.275 13.548-42.767 18.909-67.011 21.374-23.158 2.356-51.768 2.356-86.052 2.355zM755.2 260.272v193.959c0 34.282 0 62.888-2.355 86.048-2.463 24.242-7.828 46.737-21.376 67.013-10.271 15.374-23.47 28.574-38.845 38.846-20.275 13.548-42.767 18.909-67.011 21.374-23.158 2.356-51.768 2.356-86.052 2.355h-193.956c0.033 29.829 0.272 50.9 1.955 67.439 1.848 18.169 5.116 26.565 8.826 32.117 4.669 6.988 10.67 12.988 17.658 17.658 5.553 3.71 13.948 6.978 32.117 8.826 18.811 1.913 43.486 1.96 80.239 1.96h256c36.751 0 61.43-0.047 80.241-1.96 18.166-1.848 26.563-5.116 32.118-8.826 6.989-4.669 12.984-10.67 17.654-17.658 3.712-5.553 6.979-13.948 8.827-32.117 1.915-18.811 1.961-43.486 1.961-80.239v-256c0-36.751-0.046-61.43-1.961-80.241-1.848-18.166-5.115-26.563-8.827-32.118-4.669-6.989-10.665-12.984-17.654-17.654-5.555-3.712-13.952-6.979-32.118-8.827-16.543-1.684-37.612-1.925-67.441-1.956zM169.244 582.281c5.553 3.71 13.948 6.978 32.117 8.826 18.811 1.913 43.486 1.96 80.239 1.96h256c36.751 0 61.43-0.047 80.241-1.96 18.166-1.848 26.563-5.116 32.118-8.826 6.989-4.669 12.984-10.67 17.654-17.658 3.712-5.553 6.979-13.948 8.827-32.117 1.915-18.811 1.961-43.486 1.961-80.239v-256c0-36.751-0.046-61.43-1.961-80.241-1.848-18.166-5.115-26.563-8.827-32.118-4.669-6.989-10.665-12.984-17.654-17.654-5.555-3.712-13.952-6.979-32.118-8.827-18.811-1.915-43.489-1.961-80.241-1.961h-256c-36.753 0-61.428 0.046-80.239 1.961-18.169 1.848-26.565 5.115-32.117 8.827-6.988 4.669-12.988 10.665-17.658 17.654-3.71 5.555-6.978 13.952-8.826 32.118-1.913 18.811-1.96 43.489-1.96 80.241v256c0 36.753 0.047 61.428 1.96 80.239 1.848 18.169 5.116 26.565 8.826 32.117 4.669 6.988 10.67 12.988 17.658 17.658zM268.8 426.667c0 21.208 17.192 38.4 38.4 38.4h204.8c21.207 0 38.4-17.192 38.4-38.4s-17.193-38.4-38.4-38.4h-204.8c-21.208 0-38.4 17.193-38.4 38.4zM268.8 221.867c0 21.207 17.192 38.4 38.4 38.4h204.8c21.207 0 38.4-17.193 38.4-38.4s-17.193-38.4-38.4-38.4h-204.8c-21.208 0-38.4 17.193-38.4 38.4z" />
<glyph unicode="&#xe91e;" glyph-name="edit-square" d="M881.239 116.026c1.915 18.811 1.961 43.489 1.961 80.241v179.2c0 21.207 17.193 38.4 38.4 38.4s38.4-17.193 38.4-38.4v-181.161c0-34.284 0-62.894-2.355-86.052-2.468-24.243-7.828-46.735-21.376-67.011-10.271-15.375-23.47-28.575-38.845-38.845-20.275-13.548-42.767-18.913-67.011-21.376-23.163-2.355-51.768-2.355-86.052-2.355h-464.723c-34.283 0-62.89 0-86.050 2.355-24.242 2.463-46.737 7.828-67.013 21.376-15.374 10.271-28.574 23.47-38.846 38.845-13.548 20.275-18.909 42.767-21.375 67.011-2.356 23.163-2.355 51.768-2.354 86.052v464.723c-0.001 34.283-0.002 62.89 2.354 86.050 2.466 24.242 7.827 46.737 21.375 67.013 10.272 15.374 23.473 28.574 38.846 38.846 20.275 13.548 42.771 18.909 67.013 21.375 23.159 2.356 51.766 2.355 86.048 2.354h283.564c21.207 0 38.4-17.192 38.4-38.4s-17.193-38.4-38.4-38.4h-281.6c-36.753 0-61.428-0.047-80.239-1.96-18.169-1.848-26.565-5.116-32.117-8.826-6.988-4.669-12.988-10.67-17.658-17.658-3.71-5.553-6.978-13.948-8.826-32.117-1.913-18.811-1.96-43.486-1.96-80.239v-460.8c0-36.751 0.047-61.43 1.96-80.241 1.848-18.166 5.116-26.563 8.826-32.118 4.669-6.989 10.67-12.984 17.658-17.654 5.553-3.712 13.948-6.979 32.117-8.827 18.811-1.915 43.486-1.961 80.239-1.961h460.8c36.751 0 61.43 0.046 80.241 1.961 18.166 1.848 26.563 5.115 32.118 8.827 6.984 4.669 12.984 10.665 17.654 17.654 3.712 5.555 6.979 13.952 8.827 32.118zM847.872 766.008c-10.214 0-20.009-4.058-27.233-11.28l-336.923-336.924-18.155-72.622 72.623 18.156 336.922 336.925c7.224 7.222 11.279 17.018 11.279 27.233s-4.055 20.010-11.279 27.233c-7.224 7.223-17.019 11.28-27.233 11.28zM766.331 809.034c21.627 21.626 50.959 33.775 81.541 33.775s59.914-12.149 81.541-33.775c21.622-21.625 33.772-50.955 33.772-81.539s-12.15-59.913-33.772-81.539l-344.448-344.443c-4.92-4.92-11.085-8.412-17.838-10.102l-145.029-36.255c-13.086-3.272-26.928 0.558-36.466 10.097s-13.372 23.383-10.101 36.47l36.257 145.027c1.688 6.752 5.179 12.918 10.101 17.84l344.441 344.443z" />
<glyph unicode="&#xe91f;" glyph-name="error-hexagon" d="M441.6 839.962c43.564 25.151 97.239 25.151 140.8 0l252.324-145.679c43.566-25.151 70.4-71.633 70.4-121.936v-291.359c0-50.304-26.834-96.783-70.4-121.938l-252.324-145.679c-43.561-25.149-97.236-25.149-140.8 0l-252.324 145.679c-43.564 25.155-70.4 71.634-70.4 121.938v291.359c0 50.303 26.836 96.785 70.4 121.936l252.324 145.679zM544 773.451c-19.799 11.432-44.198 11.432-64 0l-252.324-145.679c-19.802-11.432-32-32.561-32-55.426v-291.359c0-22.866 12.198-43.991 32-55.424l252.324-145.679c19.802-11.433 44.201-11.433 64 0l252.324 145.679c19.804 11.433 32 32.558 32 55.424v291.359c0 22.865-12.196 43.993-32 55.426l-252.324 145.679zM382.444 297.116c-14.996 14.996-14.996 39.306 0 54.303l204.805 204.805c14.996 14.996 39.306 14.996 54.303 0s14.996-39.31 0-54.306l-204.802-204.802c-14.996-14.996-39.31-14.996-54.306 0zM382.444 556.222c14.996 14.996 39.31 14.996 54.306 0l204.802-204.804c14.996-14.996 14.996-39.306 0-54.303s-39.306-14.996-54.303 0l-204.805 204.801c-14.996 14.996-14.996 39.31 0 54.306z" />
<glyph unicode="&#xe920;" glyph-name="file-text" d="M641.761 795.111c-7.813 2.372-16.748 2.756-50.386 2.756h-258.575c-36.753 0-61.428-0.047-80.239-1.96-18.169-1.848-26.565-5.115-32.117-8.826-6.988-4.669-12.988-10.669-17.658-17.657-3.71-5.553-6.978-13.948-8.826-32.117-1.913-18.811-1.96-43.486-1.96-80.239v-460.801c0-36.751 0.047-61.43 1.96-80.241 1.848-18.166 5.116-26.563 8.826-32.118 4.669-6.984 10.67-12.984 17.658-17.654 5.553-3.712 13.948-6.979 32.117-8.827 18.811-1.915 43.486-1.961 80.239-1.961h358.4c36.751 0 61.43 0.046 80.241 1.961 18.166 1.848 26.563 5.115 32.118 8.827 6.984 4.669 12.984 10.67 17.654 17.654 3.712 5.555 6.979 13.952 8.827 32.118 1.915 18.811 1.961 43.489 1.961 80.241v360.973c0 33.639-0.384 42.573-2.755 50.39-1.219 4.012-2.826 7.894-4.803 11.592-3.85 7.204-9.897 13.793-33.684 37.579l-99.825 99.827c-23.788 23.786-30.377 29.832-37.581 33.682-3.697 1.976-7.578 3.584-11.592 4.801zM596.014 874.67c26.798 0.019 47.933 0.035 68.045-6.065 8.822-2.677 17.367-6.215 25.498-10.563 18.534-9.905 33.464-24.86 52.403-43.826 1.080-1.081 2.171-2.175 3.282-3.282l99.825-99.827c1.106-1.107 2.202-2.199 3.282-3.279 18.964-18.938 33.92-33.871 43.827-52.403 4.347-8.134 7.885-16.675 10.563-25.501 6.098-20.108 6.083-41.242 6.062-68.044 0-1.528 0-3.074 0-4.639v-362.939c0-34.278 0-62.884-2.355-86.047-2.463-24.238-7.828-46.735-21.376-67.011-10.271-15.375-23.47-28.575-38.845-38.845-20.275-13.548-42.767-18.908-67.011-21.376-23.163-2.355-51.768-2.355-86.052-2.355h-362.323c-34.283 0-62.89 0-86.050 2.355-24.242 2.468-46.737 7.828-67.013 21.376-15.374 10.271-28.574 23.47-38.846 38.845-13.548 20.275-18.909 42.772-21.375 67.011-2.356 23.163-2.355 51.768-2.354 86.052v464.724c-0.001 34.282-0.002 62.889 2.354 86.049 2.466 24.242 7.827 46.737 21.375 67.012 10.272 15.374 23.473 28.574 38.846 38.847 20.275 13.547 42.771 18.909 67.013 21.374 23.159 2.356 51.766 2.355 86.048 2.355h260.539c1.562 0 3.108 0.001 4.639 0.002zM704 631.467c0 21.208-17.193 38.4-38.4 38.4h-307.2c-21.208 0-38.4-17.192-38.4-38.4s17.192-38.4 38.4-38.4h307.2c21.207 0 38.4 17.192 38.4 38.4zM704 426.667c0 21.208-17.193 38.4-38.4 38.4h-307.2c-21.208 0-38.4-17.192-38.4-38.4s17.192-38.4 38.4-38.4h307.2c21.207 0 38.4 17.193 38.4 38.4zM704 221.867c0 21.207-17.193 38.4-38.4 38.4h-307.2c-21.208 0-38.4-17.193-38.4-38.4s17.192-38.4 38.4-38.4h307.2c21.207 0 38.4 17.193 38.4 38.4z" />
<glyph unicode="&#xe921;" glyph-name="gear" d="M604.493 844.403c25.114-21.688 40.955-53.534 43.028-92.537 2.125-39.866 40.837-61.283 74.199-44.108 34.688 17.859 70.17 19.862 101.443 8.57 30.515-11.019 54.144-33.624 68.623-60.166 29.087-53.321 24.136-129.491-41.539-176.328-34.386-24.525-32.527-74.082-3.169-94.449 66.719-46.28 67.005-123.802 37.187-176.189-29.87-52.485-96.85-91.535-170.296-55.782-30.996 15.089-74.010-6.697-77.819-49.9-7.101-80.558-69.581-123.699-130.628-124.82-30.223-0.558-61.431 9.011-86.013 30.239-25.116 21.688-40.954 53.535-43.031 92.539-2.123 39.864-40.836 61.281-74.197 44.109-34.69-17.859-70.17-19.866-101.442-8.571-30.517 11.018-54.147 33.623-68.626 60.165-29.087 53.32-24.134 129.49 41.538 176.328 34.386 24.525 32.53 74.080 3.169 94.448-66.717 46.282-67.001 123.801-37.183 176.191 29.872 52.485 96.847 91.532 170.295 55.78 30.999-15.089 74.012 6.696 77.82 49.9 7.101 80.558 69.582 123.698 130.625 124.824 30.223 0.557 61.435-9.014 86.016-30.241zM519.895 797.857c-26.338-0.486-52.271-17.699-55.54-54.78-8.009-90.858-103.273-153.421-187.936-112.21-28.046 13.651-54.741 1.982-69.936-24.715-15.248-26.792-11.995-56.921 14.212-75.1 76.534-53.093 71.806-167.192-2.35-220.076-29.575-21.094-31.94-52.772-18.711-77.025 6.679-12.242 16.616-20.854 27.288-24.709 9.917-3.579 23.247-4.111 40.205 4.618 84.353 43.428 181.044-14.459 186.041-108.308 1.047-19.661 8.358-31.432 16.535-38.492 8.709-7.521 20.935-11.832 34.403-11.581 26.335 0.486 52.268 17.7 55.54 54.779 8.008 90.86 103.27 153.421 187.935 112.21 28.047-13.65 54.743-1.981 69.934 24.714 15.252 26.793 11.996 56.924-14.208 75.1-76.534 53.094-71.808 167.192 2.35 220.080 29.573 21.093 31.939 52.772 18.708 77.022-6.676 12.244-16.614 20.856-27.29 24.71-9.917 3.581-23.245 4.113-40.202-4.617-84.352-43.427-181.043 14.459-186.040 108.307-1.050 19.662-8.361 31.433-16.538 38.494-8.709 7.521-20.936 11.83-34.401 11.582zM512 567.467c77.763 0 140.8-63.038 140.8-140.8s-63.037-140.8-140.8-140.8c-77.762 0-140.8 63.037-140.8 140.8 0 77.762 63.038 140.8 140.8 140.8zM576 426.667c0 35.346-28.652 64-64 64-35.346 0-64-28.654-64-64 0-35.348 28.654-64 64-64 35.348 0 64 28.652 64 64z" />
<glyph unicode="&#xe922;" glyph-name="circle" d="M512 797.867c-205.008 0-371.2-166.192-371.2-371.2 0-205.010 166.192-371.2 371.2-371.2 205.010 0 371.2 166.19 371.2 371.2 0 205.008-166.19 371.2-371.2 371.2zM64 426.667c0 247.423 200.577 448 448 448s448-200.577 448-448c0-247.424-200.576-448-448-448s-448 200.576-448 448z" />
</font>
</defs>
</svg>
